форум фотографов - разговоры о фото
на главную ZНЯТА
Форум Фотографов в Беларуси

 




Автор Сообщение
Сообщение  просмотр и редактирование видео
 
[Не в сети] гость

Сообщения: 4

Профиль

Помогите пожалуйста разобраться в ситуации. Снимаю видео таймлапс на смартфоне самсунг с помощью приложения framelaps (pro). Просматриваю на ноуте с помощью программы MPC. Эта программа позволяет покадрово перемещаться вперёд-назад если что-то хочешь найти, увеличить или замедлить скорость, в общем удобно и быстро.
В один прекрасный момент после обновления тфна видеофайлы стали глючить при просмотре. Т.е. нажимаю например стрелкой на ползунок в середине видео или пытаюсь прокрутить покадрово или увеличиваю скорость, видео останавливается на одном кадре и виснет.

Залез в свойства снятых видеофайлов и увидел такие различия в файлах ДО и ПОСЛЕ обновления, а может и не обновление виновато а чтото другое(?)

Появилась новые строки
«HDR format : SMPTE ST 2086, HDR10 compatible»
«transfer_characteristics_Origi : SMPTE 240M / BT.709»
«Maximum Content Light Level : 30673 cd/m2»
«Maximum Frame-Average Light Le : 39507 cd/m2»

Наверно из-за них и идут глюки? Какие есть варианты устранения? (перегружал, переустанавливал, ничего не помогло)

Для сравнения свойства видео полностью ДО и ПОСЛЕ


General
Format : MPEG-4
Format profile : Base Media / Version 2
Codec ID : mp42 (isom/mp42)
File size : 3.03 GiB
Duration : 12 min 44 s
Overall bit rate : 34.0 Mb/s
Encoded date : UTC 2021-09-08 06:52:13
Tagged date : UTC 2021-09-08 06:52:13
com.android.version : 10
com.android.video.temporal_lay : Unknown kind of value!
Video
ID : 1
Format : AVC
Format/Info : Advanced Video Codec
Format profile : High@L4
Format settings : CABAC / 4 Ref Frames
Format settings, CABAC : Yes
Format settings, Reference fra : 4 frames
Codec ID : avc1
Codec ID/Info : Advanced Video Coding
Duration : 12 min 44 s
Bit rate : 34.0 Mb/s
Width : 1 920 pixels
Height : 1 080 pixels
Display aspect ratio : 16:9
Frame rate mode : Variable
Frame rate : 30.000 FPS
Minimum frame rate : 29.990 FPS
Maximum frame rate : 30.010 FPS
FrameRate_Real : 0.257 FPS
Color space : YUV
Chroma subsampling : 4:2:0
Bit depth : 8 bits
Scan type : Progressive
Bits/(Pixel*Frame) : 0.547
Stream size : 3.03 GiB (100%)
Title : VideoHandle
Language : English
Encoded date : UTC 2021-09-08 06:52:13
Tagged date : UTC 2021-09-08 06:52:13
Color range : Limited
Color primaries : BT.709
Transfer characteristics : BT.709
transfer_characteristics_Origi : BT.601
Matrix coefficients : BT.709
mdhd_Duration : 764600
Codec configuration box : avcC

И

General
Format : MPEG-4
Format profile : Base Media / Version 2
Codec ID : mp42 (isom/mp42)
File size : 41.3 MiB
Duration : 3 s 600 ms
Overall bit rate : 96.3 Mb/s
Encoded date : UTC 2021-09-26 17:47:15
Tagged date : UTC 2021-09-26 17:47:15
com.android.version : 10
com.android.video.temporal_lay : Unknown kind of value!
Video
ID : 1
Format : AVC
Format/Info : Advanced Video Codec
Format profile : High@L5.1
HDR format : SMPTE ST 2086, HDR10 compatible
Format settings : CABAC / 2 Ref Frames
Format settings, CABAC : Yes
Format settings, Reference fra : 2 frames
Codec ID : avc1
Codec ID/Info : Advanced Video Coding
Duration : 3 s 600 ms
Bit rate : 96.3 Mb/s
Width : 3 840 pixels
Height : 2 160 pixels
Display aspect ratio : 16:9
Frame rate mode : Constant
Frame rate : 30.000 FPS
FrameRate_Real : 0.257 FPS
Color space : YUV
Chroma subsampling : 4:2:0
Bit depth : 8 bits
Scan type : Progressive
Bits/(Pixel*Frame) : 0.387
Stream size : 41.3 MiB (100%)
Title : VideoHandle
Language : English
Encoded date : UTC 2021-09-26 17:47:15
Tagged date : UTC 2021-09-26 17:47:15
Color range : Limited
Color primaries : BT.709
Transfer characteristics : BT.709
transfer_characteristics_Origi : SMPTE 240M / BT.709
Matrix coefficients : BT.709
Maximum Content Light Level : 30673 cd/m2
Maximum Frame-Average Light Le : 39507 cd/m2
Codec configuration box : avcC


И второй вопрос: какие лучше выбрать просмотровики файлов (чтобы удобно и быстро при просмотре можно было скорость менять, покадрово вперёд назад перемещать, делать скриншоты) и видеоредакторы (для вырезания, объединения, сохранения изменений скорости, затемнения итд). Спасибо!


 
 28 сен, 21 14:09
Показать сообщения за:  Поле сортировки  
Начать новую тему Ответить на тему  просмотр и редактирование видео

 


Кто сейчас на конференции

Сейчас этот форум просматривают: нет зарегистрированных пользователей и гости: 4


Вы не можете начинать темы
Вы не можете отвечать на сообщения
Вы не можете редактировать свои сообщения
Вы не можете удалять свои сообщения
Вы не можете добавлять вложения


  



Форум Фотографов в Беларуси
© 2004 - 2021  
znyata.com
Scripts based on phpBB © phpBB Group

  


Предметная съемка в Минске
Портретная фотосессия в Минcке